+ Reply to Thread
Results 1 to 2 of 2
  1. #1
    Senior Member
    Join Date
    Feb 2018
    Posts
    337
    Thanks
    0
    Thanked 101 Times in 74 Posts

    Arrow [จัดเต็ม!!] [4K /1080p] [BDRM Remux Full Bitrate] / [Full-HD] / [Mini-HD] A Quiet Place (2018) : ดินแดนไร้เสียง !!! [เสียง:อังกฤษ TrueHD 7.1 Atmos - บรรยาย:ไทย,อังกฤษ] [ซับไทย 4k UHD BluRay Master +ซับ PGS]







    ***ซับไทย แท้ จาก 4k UHD BluRay Master***

    ***ZONE 4K UHD***

    4K UHD Mini HD

    [email protected]
    Format : Matroska
    Format version : Version 4 / Version 2
    File size : 4.07 GiB
    Duration : 1 h 30 min
    Overall bit rate : 6 452 kb/s
    Movie name : [email protected]
    Encoded date : UTC 2018-07-12 04:13:32
    Writing application : mkvmerge v20.0.0 ('I Am The Sun') 64-bit
    Writing library : libebml v1.3.5 + libmatroska v1.4.8
    Cover : Yes
    Attachments : cover.jpg

    Video
    ID : 1
    Format : HEVC
    Format/Info : High Efficiency Video Coding
    Format profile : Main [email protected]@Main
    Codec ID : V_MPEGH/ISO/HEVC
    Duration : 1 h 30 min
    Bit rate : 5 051 kb/s
    Width : 3 840 pixels
    Height : 2 160 pixels

    Display aspect ratio : 16:9
    Frame rate mode : Constant
    Frame rate : 23.976 (24000/1001) FPS
    Color space : YUV
    Chroma subsampling : 4:2:0
    Bit depth : 10 bits
    Bits/(Pixel*Frame) : 0.025
    Stream size : 3.18 GiB (78%)
    Title : @@[email protected]@
    Language : English
    Default : Yes
    Forced : No
    Color range : Limited
    Color primaries : BT.2020
    Transfer characteristics : SMPTE ST 2084
    Matrix coefficients : BT.2020 non-constant

    Audio #1
    ID : 2
    Format : DTS
    Format/Info : Digital Theater Systems
    Mode : 16
    Format settings, Endianness : Big
    Codec ID : A_DTS
    Duration : 1 h 30 min
    Bit rate mode : Constant
    Bit rate : 755 kb/s
    Channel(s) : 6 channels
    Channel positions : Front: L C R, Side: L R, LFE
    Sampling rate : 48.0 kHz
    Frame rate : 93.750 FPS (512 SPF)
    Bit depth : 24 bits
    Compression mode : Lossy
    Stream size : 487 MiB (12%)
    Title : English DTS 5.1
    Language : English

    Default : Yes
    Forced : Yes

    Audio #2
    ID : 3
    Format : AC-3
    Format/Info : Audio Coding 3
    Format settings, Endianness : Big
    Codec ID : A_AC3
    Duration : 1 h 30 min
    Bit rate mode : Constant
    Bit rate : 640 kb/s
    Channel(s) : 6 channels
    Channel positions : Front: L C R, Side: L R, LFE
    Sampling rate : 48.0 kHz
    Frame rate : 31.250 FPS (1536 SPF)
    Bit depth : 16 bits
    Compression mode : Lossy
    Stream size : 413 MiB (10%)
    Title : English AC3 5.1
    Language : English
    Service kind : Complete Main
    Default : No
    Forced : No

    Text #1
    ID : 4
    Format : PGS
    Muxing mode : zlib
    Codec ID : S_HDMV/PGS
    Codec ID/Info : Picture based subtitle format used on BDs/HD-DVDs
    Duration : 1 h 11 min
    Bit rate : 2 139 b/s
    Count of elements : 302
    Stream size : 1.10 MiB (0%)
    Title : English
    Language : English
    Default : No
    Forced : No

    Text #2
    ID : 5
    Format : PGS
    Muxing mode : zlib
    Codec ID : S_HDMV/PGS
    Codec ID/Info : Picture based subtitle format used on BDs/HD-DVDs
    Duration : 1 h 29 min
    Bit rate : 1 568 b/s
    Count of elements : 340
    Stream size : 1.01 MiB (0%)
    Title : Thai PGS 4K UHD BluRay Master
    Language : Thai

    Default : Yes
    Forced : Yes

    Text #3
    ID : 6
    Format : PGS
    Muxing mode : zlib
    Codec ID : S_HDMV/PGS
    Codec ID/Info : Picture based subtitle format used on BDs/HD-DVDs
    Duration : 1 h 29 min
    Bit rate : 1 568 b/s
    Count of elements : 368
    Stream size : 1.00 MiB (0%)
    Title : Thai PGS 4K UHD BluRay Master LOW
    Language : Thai
    Default : No
    Forced : No

    Text #4
    ID : 7
    Format : VobSub
    Muxing mode : zlib
    Codec ID : S_VOBSUB
    Codec ID/Info : Picture based subtitle format used on DVDs
    Duration : 1 h 29 min
    Bit rate : 149 b/s
    Count of elements : 184
    Stream size : 98.0 KiB (0%)
    Title : Thai 480p
    Language : Thai
    Default : No
    Forced : No

    Text #5
    ID : 8
    Format : VobSub
    Muxing mode : zlib
    Codec ID : S_VOBSUB
    Codec ID/Info : Picture based subtitle format used on DVDs
    Duration : 1 h 29 min
    Bit rate : 490 b/s
    Count of elements : 184
    Stream size : 321 KiB (0%)
    Title : Thai 1080p
    Language : Thai
    Default : No
    Forced : Yes

    Text #6
    ID : 9
    Format : VobSub
    Muxing mode : zlib
    Codec ID : S_VOBSUB
    Codec ID/Info : Picture based subtitle format used on DVDs
    Duration : 1 h 29 min
    Bit rate : 490 b/s
    Count of elements : 184
    Stream size : 321 KiB (0%)
    Title : Thai 1080p LOW
    Language : Thai
    Default : No
    Forced : No

    ***MODIFIED BY @ENTHD***


    4K UHD FULL HD

    Full.A.Quiet.Place.2018.2160p.BluRay.x265.10bit.HD [email protected]
    Format : Matroska
    Format version : Version 4 / Version 2
    File size : 18.1 GiB
    Duration : 1 h 30 min
    Overall bit rate mode : Variable
    Overall bit rate : 28.7 Mb/s
    Movie name : Full.A.Quiet.Place.2018.2160p.BluRay.x265.10bit.HD [email protected]
    Encoded date : UTC 2018-07-12 03:48:09
    Writing application : mkvmerge v20.0.0 ('I Am The Sun') 64-bit
    Writing library : libebml v1.3.5 + libmatroska v1.4.8
    Cover : Yes
    Attachments : cover.jpg

    Video
    ID : 1
    Format : HEVC
    Format/Info : High Efficiency Video Coding
    Format profile : Main [email protected]@High
    Codec ID : V_MPEGH/ISO/HEVC
    Duration : 1 h 30 min
    Bit rate : 20.7 Mb/s
    Width : 3 840 pixels
    Height : 1 600 pixels

    Display aspect ratio : 2.40:1
    Frame rate mode : Constant
    Frame rate : 23.976 (24000/1001) FPS
    Color space : YUV
    Chroma subsampling : 4:2:0 (Type 2)
    Bit depth : 10 bits
    Bits/(Pixel*Frame) : 0.140
    Stream size : 13.0 GiB (72%)
    Title : @@[email protected]@
    Writing library : x265 2.8+10-703eade86b53:[Windows][GCC 8.1.0][64 bit] 10bit
    Encoding settings : cpuid=1176575 / frame-threads=5 / numa-pools=32 / wpp / no-pmode / no-pme / no-psnr / no-ssim / log-level=2 / input-csp=1 / input-res=3840x1600 / interlace=0 / total-frames=129826 / level-idc=51 / high-tier=1 / uhd-bd=0 / ref=4 / no-allow-non-conformance / repeat-headers / annexb / aud / hrd / info / hash=0 / no-temporal-layers / no-open-gop / min-keyint=24 / keyint=240 / gop-lookahead=0 / bframes=4 / b-adapt=2 / b-pyramid / bframe-bias=0 / rc-lookahead=25 / lookahead-slices=4 / scenecut=40 / radl=0 / no-intra-refresh / ctu=64 / min-cu-size=8 / rect / no-amp / max-tu-size=32 / tu-inter-depth=1 / tu-intra-depth=1 / limit-tu=0 / rdoq-level=2 / dynamic-rd=0.00 / no-ssim-rd / signhide / no-tskip / nr-intra=0 / nr-inter=0 / no-constrained-intra / no-strong-intra-smoothing / max-merge=3 / limit-refs=3 / limit-modes / me=3 / subme=3 / merange=57 / temporal-mvp / weightp / no-weightb / no-analyze-src-pics / deblock=-3:-3 / no-sao / no-sao-non-deblock / rd=4 / no-early-skip / rskip / no-fast-intra / no-tskip-fast / no-cu-lossless / no-b-intra / no-splitrd-skip / rdpenalty=0 / psy-rd=2.00 / psy-rdoq=1.00 / no-rd-refine / no-lossless / cbqpoffs=0 / crqpoffs=0 / rc=crf / crf=17.0 / qcomp=0.60 / qpstep=4 / stats-write=0 / stats-read=0 / vbv-maxrate=160000 / vbv-bufsize=160000 / vbv-init=0.9 / crf-max=0.0 / crf-min=0.0 / ipratio=1.40 / pbratio=1.30 / aq-mode=1 / aq-strength=1.00 / cutree / zone-count=0 / no-strict-cbr / qg-size=32 / no-rc-grain / qpmax=69 / qpmin=0 / no-const-vbv / sar=1 / overscan=0 / videoformat=5 / range=0 / colorprim=9 / transfer=16 / colormatrix=9 / chromaloc=1 / chromaloc-top=2 / chromaloc-bottom=2 / display-window=0 / master-display=G(13250,34500)B(7500,3000)R(34000,16000)WP (15635,16450)L(10000000,1) / max-cll=0,0 / min-luma=0 / max-luma=1023 / log2-max-poc-lsb=8 / vui-timing-info / vui-hrd-info / slices=1 / no-opt-qp-pps / no-opt-ref-list-length-pps / no-multi-pass-opt-rps / scenecut-bias=0.05 / no-opt-cu-delta-qp / no-aq-motion / hdr / hdr-opt / no-dhdr10-opt / no-idr-recovery-sei / analysis-reuse-level=5 / scale-factor=0 / refine-intra=0 / refine-inter=0 / refine-mv=0 / no-limit-sao / ctu-info=0 / no-lowpass-dct / refine-mv-type=0 / copy-pic=1 / max-ausize-factor=1.0 / no-dynamic-refine / no-single-sei
    Language : English
    Default : Yes
    Forced : No
    Color range : Limited
    Color primaries : BT.2020
    Transfer characteristics : SMPTE ST 2084
    Matrix coefficients : BT.2020 non-constant
    Mastering display color primar : R: x=0.680000 y=0.320000, G: x=0.265000 y=0.690000, B: x=0.150000 y=0.060000, White point: x=0.312700 y=0.329000
    Mastering display luminance : min: 0.0001 cd/m2, max: 1000.0000 cd/m2

    Audio #1
    ID : 2
    Format : TrueHD
    Format profile : TrueHD+Atmos / TrueHD
    Codec ID : A_TRUEHD

    Duration : 1 h 30 min
    Bit rate mode : Variable
    Bit rate : 3 890 kb/s
    Maximum bit rate : 8 064 kb/s
    Channel(s) : Object Based / 8 channels
    Channel positions : Object Based / Front: L C R, Side: L R, Back: L R, LFE
    Sampling rate : / 48.0 kHz
    Frame rate : 1 200.000 FPS (40 SPF)
    Compression mode : Lossless
    Stream size : 2.45 GiB (14%)
    Title : Eng TrueHD.7.1.Atmos
    Language : English

    Default : Yes
    Forced : Yes

    Audio #2
    ID : 3
    Format : DTS
    Format/Info : Digital Theater Systems
    Format profile : MA / Core
    Mode : 16
    Format settings, Endianness : Big
    Codec ID : A_DTS
    Duration : 1 h 30 min
    Bit rate mode : Variable / Constant
    Bit rate : 3 448 kb/s / 1 509 kb/s
    Channel(s) : 8 channels / 6 channels
    Channel positions : Front: L C R, Side: L R, Back: L R, LFE / Front: L C R, Side: L R, LFE
    Sampling rate : 48.0 kHz
    Frame rate : 93.750 FPS (512 SPF)
    Bit depth : 24 bits
    Compression mode : Lossless / Lossy
    Stream size : 2.17 GiB (12%)
    Title : Eng DTS-HD.MA.7.1
    Language : English

    Default : No
    Forced : No

    Audio #3
    ID : 4
    Format : AC-3
    Format/Info : Audio Coding 3
    Format settings, Endianness : Big
    Codec ID : A_AC3
    Duration : 1 h 30 min
    Bit rate mode : Constant
    Bit rate : 640 kb/s
    Channel(s) : 6 channels
    Channel positions : Front: L C R, Side: L R, LFE
    Sampling rate : 48.0 kHz
    Frame rate : 31.250 FPS (1536 SPF)
    Bit depth : 16 bits
    Compression mode : Lossy
    Stream size : 413 MiB (2%)
    Title : Eng AC3 5.1
    Language : English
    Service kind : Complete Main
    Default : No
    Forced : No

    Text #1
    ID : 5
    Format : PGS
    Muxing mode : zlib
    Codec ID : S_HDMV/PGS
    Codec ID/Info : Picture based subtitle format used on BDs/HD-DVDs
    Duration : 1 h 11 min
    Bit rate : 2 139 b/s
    Count of elements : 302
    Stream size : 1.10 MiB (0%)
    Title : English
    Language : English
    Default : No
    Forced : No

    Text #2
    ID : 6
    Format : PGS
    Muxing mode : zlib
    Codec ID : S_HDMV/PGS
    Codec ID/Info : Picture based subtitle format used on BDs/HD-DVDs
    Duration : 1 h 29 min
    Bit rate : 1 568 b/s
    Count of elements : 340
    Stream size : 1.01 MiB (0%)
    Title : Thai PGS 4K UHD BluRay Master
    Language : Thai

    Default : Yes
    Forced : Yes

    Text #3
    ID : 7
    Format : PGS
    Muxing mode : zlib
    Codec ID : S_HDMV/PGS
    Codec ID/Info : Picture based subtitle format used on BDs/HD-DVDs
    Duration : 1 h 29 min
    Bit rate : 1 568 b/s
    Count of elements : 368
    Stream size : 1.00 MiB (0%)
    Title : Thai PGS 4K UHD BluRay Master LOW
    Language : Thai
    Default : No
    Forced : No

    Text #4
    ID : 8
    Format : VobSub
    Muxing mode : zlib
    Codec ID : S_VOBSUB
    Codec ID/Info : Picture based subtitle format used on DVDs
    Duration : 1 h 29 min
    Bit rate : 149 b/s
    Count of elements : 184
    Stream size : 98.0 KiB (0%)
    Title : Thai 480p
    Language : Thai
    Default : No
    Forced : No

    Text #5
    ID : 9
    Format : VobSub
    Muxing mode : zlib
    Codec ID : S_VOBSUB
    Codec ID/Info : Picture based subtitle format used on DVDs
    Duration : 1 h 29 min
    Bit rate : 490 b/s
    Count of elements : 184
    Stream size : 321 KiB (0%)
    Title : Thai 1080p
    Language : Thai
    Default : No
    Forced : Yes

    Text #6
    ID : 10
    Format : VobSub
    Muxing mode : zlib
    Codec ID : S_VOBSUB
    Codec ID/Info : Picture based subtitle format used on DVDs
    Duration : 1 h 29 min
    Bit rate : 490 b/s
    Count of elements : 184
    Stream size : 321 KiB (0%)
    Title : Thai 1080p LOW
    Language : Thai
    Default : No
    Forced : No


    ***MODIFIED BY @ENTHD***



    4k UHD [BDRM Remux Full Bitrate]

    Full.Rip.A.Quiet.Place.2018.2160p.4K.UltraHD.10bit [email protected]
    Format : Matroska
    Format version : Version 4 / Version 2
    File size : 51.7 GiB
    Duration : 1 h 30 min
    Overall bit rate mode : Variable
    Overall bit rate : 82.0 Mb/s
    Movie name : FullRip.A.Quiet.Place.2018.2160p.4K.UltraHD.10bit. [email protected]
    Encoded date : UTC 2018-07-12 00:37:29
    Writing application : mkvmerge v20.0.0 ('I Am The Sun') 64-bit
    Writing library : libebml v1.3.5 + libmatroska v1.4.8
    Cover : Yes
    Attachments : cover.jpg

    Video #1
    ID : 1
    Format : HEVC
    Format/Info : High Efficiency Video Coding
    Commercial name : HDR10
    Format profile : Main [email protected]@High
    Codec ID : V_MPEGH/ISO/HEVC
    Duration : 1 h 30 min
    Bit rate : 66.3 Mb/s
    Width : 3 840 pixels
    Height : 2 160 pixels

    Display aspect ratio : 16:9
    Frame rate mode : Constant
    Frame rate : 23.976 (24000/1001) FPS
    Color space : YUV
    Chroma subsampling : 4:2:0 (Type 2)
    Bit depth : 10 bits
    Bits/(Pixel*Frame) : 0.333
    Stream size : 41.8 GiB (81%)
    Title : @@[email protected]@
    Language : English
    Default : Yes
    Forced : No
    Color range : Limited
    Color primaries : BT.2020
    Transfer characteristics : SMPTE ST 2084
    Matrix coefficients : BT.2020 non-constant
    Mastering display color primar : R: x=0.680000 y=0.320000, G: x=0.265000 y=0.690000, B: x=0.150000 y=0.060000, White point: x=0.312700 y=0.329000
    Mastering display luminance : min: 0.0001 cd/m2, max: 1000.0000 cd/m2

    Video #2
    ID : 2
    Format : HEVC
    Format/Info : High Efficiency Video Coding
    Format profile : Main [email protected]@High
    Codec ID : V_MPEGH/ISO/HEVC
    Duration : 1 h 30 min
    Bit rate : 7 635 kb/s
    Width : 1 920 pixels
    Height : 1 080 pixels
    Display aspect ratio : 16:9
    Frame rate mode : Constant
    Frame rate : 23.976 (24000/1001) FPS
    Color space : YUV
    Chroma subsampling : 4:2:0 (Type 2)
    Bit depth : 10 bits
    Bits/(Pixel*Frame) : 0.154
    Stream size : 4.81 GiB (9%)
    Language : English
    Default : No
    Forced : No
    Color range : Limited
    Color primaries : BT.2020
    Transfer characteristics : SMPTE ST 2084
    Matrix coefficients : BT.2020 non-constant
    Mastering display color primar : R: x=0.680000 y=0.320000, G: x=0.265000 y=0.690000, B: x=0.150000 y=0.060000, White point: x=0.312700 y=0.329000
    Mastering display luminance : min: 0.0001 cd/m2, max: 1000.0000 cd/m2

    Audio #1
    ID : 3
    Format : TrueHD
    Format profile : TrueHD+Atmos / TrueHD
    Codec ID : A_TRUEHD

    Duration : 1 h 30 min
    Bit rate mode : Variable
    Bit rate : 3 890 kb/s
    Maximum bit rate : 8 064 kb/s
    Channel(s) : Object Based / 8 channels
    Channel positions : Object Based / Front: L C R, Side: L R, Back: L R, LFE
    Sampling rate : / 48.0 kHz
    Frame rate : 1 200.000 FPS (40 SPF)
    Compression mode : Lossless
    Stream size : 2.45 GiB (5%)
    Title : Eng TrueHD 7.1 Atmos
    Language : English

    Default : No
    Forced : No

    Audio #2
    ID : 4
    Format : AC-3
    Format/Info : Audio Coding 3
    Format settings, Endianness : Big
    Codec ID : A_AC3
    Duration : 1 h 30 min
    Bit rate mode : Constant
    Bit rate : 640 kb/s
    Channel(s) : 6 channels
    Channel positions : Front: L C R, Side: L R, LFE
    Sampling rate : 48.0 kHz
    Frame rate : 31.250 FPS (1536 SPF)
    Bit depth : 16 bits
    Compression mode : Lossy
    Stream size : 413 MiB (1%)
    Title : Eng AC3 5.1
    Language : English
    Service kind : Complete Main
    Default : No
    Forced : No

    Audio #3
    ID : 5
    Format : DTS
    Format/Info : Digital Theater Systems
    Format profile : MA / Core
    Mode : 16
    Format settings, Endianness : Big
    Codec ID : A_DTS
    Duration : 1 h 30 min
    Bit rate mode : Variable / Constant
    Bit rate : 3 448 kb/s / 1 509 kb/s
    Channel(s) : 8 channels / 6 channels
    Channel positions : Front: L C R, Side: L R, Back: L R, LFE / Front: L C R, Side: L R, LFE
    Sampling rate : 48.0 kHz
    Frame rate : 93.750 FPS (512 SPF)
    Bit depth : 24 bits
    Compression mode : Lossless / Lossy
    Stream size : 2.17 GiB (4%)
    Title : Eng DTS-HD.MA.7.1
    Language : English

    Default : Yes
    Forced : No

    Text #1
    ID : 6
    Format : PGS
    Muxing mode : zlib
    Codec ID : S_HDMV/PGS
    Codec ID/Info : Picture based subtitle format used on BDs/HD-DVDs
    Duration : 1 h 11 min
    Bit rate : 1 932 b/s
    Count of elements : 302
    Stream size : 1 016 KiB (0%)
    Title : Eng
    Language : English
    Default : No
    Forced : No

    Text #2
    ID : 7
    Format : PGS
    Muxing mode : zlib
    Codec ID : S_HDMV/PGS
    Codec ID/Info : Picture based subtitle format used on BDs/HD-DVDs
    Duration : 1 h 29 min
    Bit rate : 1 568 b/s
    Count of elements : 340
    Stream size : 1.01 MiB (0%)
    Title : Thai PGS 4K UHD BluRay Master
    Language : Thai

    Default : Yes
    Forced : Yes

    Text #3
    ID : 8
    Format : PGS
    Muxing mode : zlib
    Codec ID : S_HDMV/PGS
    Codec ID/Info : Picture based subtitle format used on BDs/HD-DVDs
    Duration : 1 h 29 min
    Bit rate : 1 568 b/s
    Count of elements : 368
    Stream size : 1.00 MiB (0%)
    Title : Thai PGS 4K UHD BluRay Master LOW
    Language : Thai
    Default : No
    Forced : No

    Text #4
    ID : 9
    Format : VobSub
    Muxing mode : zlib
    Codec ID : S_VOBSUB
    Codec ID/Info : Picture based subtitle format used on DVDs
    Duration : 1 h 29 min
    Bit rate : 149 b/s
    Count of elements : 184
    Stream size : 98.0 KiB (0%)
    Title : Thai 480p
    Language : Thai
    Default : No
    Forced : No

    Text #5
    ID : 10
    Format : VobSub
    Muxing mode : zlib
    Codec ID : S_VOBSUB
    Codec ID/Info : Picture based subtitle format used on DVDs
    Duration : 1 h 29 min
    Bit rate : 490 b/s
    Count of elements : 184
    Stream size : 321 KiB (0%)
    Title : Thai 1080p
    Language : Thai
    Default : No
    Forced : Yes

    Text #6
    ID : 11
    Format : VobSub
    Muxing mode : zlib
    Codec ID : S_VOBSUB
    Codec ID/Info : Picture based subtitle format used on DVDs
    Duration : 1 h 29 min
    Bit rate : 490 b/s
    Count of elements : 184
    Stream size : 321 KiB (0%)
    Title : Thai 1080p LOW
    Language : Thai
    Default : No
    Forced : No

    ***MODIFIED BY @ENTHD***










    ------------------------------------------------------

    ZONE 1080P

    1080p SPMini HD HEVC

    [email protected]
    Format : Matroska
    Format version : Version 4 / Version 2
    File size : 3.61 GiB
    Duration : 1 h 30 min
    Overall bit rate : 5 725 kb/s
    Movie name : [email protected]
    Encoded date : UTC 2018-07-12 04:21:50
    Writing application : mkvmerge v20.0.0 ('I Am The Sun') 64-bit
    Writing library : libebml v1.3.5 + libmatroska v1.4.8
    Cover : Yes
    Attachments : cover.jpg

    Video
    ID : 1
    Format : HEVC
    Format/Info : High Efficiency Video Coding
    Format profile : Main [email protected]@Main
    Codec ID : V_MPEGH/ISO/HEVC
    Duration : 1 h 30 min
    Bit rate : 4 325 kb/s
    Width : 1 920 pixels
    Height : 800 pixels

    Display aspect ratio : 2.40:1
    Frame rate mode : Constant
    Frame rate : 23.976 (24000/1001) FPS
    Color space : YUV
    Chroma subsampling : 4:2:0
    Bit depth : 10 bits
    Bits/(Pixel*Frame) : 0.117
    Stream size : 2.73 GiB (76%)
    Title : @@[email protected]@
    Writing library : x265 2.8+19-bcdc610cf5f0:[Windows][GCC 7.3.0][64 bit] 10bit
    Encoding settings : cpuid=1111039 / frame-threads=3 / numa-pools=8 / wpp / no-pmode / no-pme / no-psnr / no-ssim / log-level=2 / input-csp=1 / input-res=1920x800 / interlace=0 / total-frames=129828 / level-idc=0 / high-tier=1 / uhd-bd=0 / ref=4 / no-allow-non-conformance / no-repeat-headers / annexb / no-aud / no-hrd / info / hash=0 / no-temporal-layers / open-gop / min-keyint=23 / keyint=250 / gop-lookahead=0 / bframes=4 / b-adapt=2 / b-pyramid / bframe-bias=0 / rc-lookahead=25 / lookahead-slices=4 / scenecut=40 / radl=0 / no-intra-refresh / ctu=64 / min-cu-size=8 / rect / no-amp / max-tu-size=32 / tu-inter-depth=1 / tu-intra-depth=1 / limit-tu=0 / rdoq-level=2 / dynamic-rd=0.00 / no-ssim-rd / signhide / no-tskip / nr-intra=0 / nr-inter=0 / no-constrained-intra / strong-intra-smoothing / max-merge=3 / limit-refs=3 / limit-modes / me=3 / subme=3 / merange=57 / temporal-mvp / weightp / no-weightb / no-analyze-src-pics / deblock=0:0 / sao / no-sao-non-deblock / rd=4 / no-early-skip / rskip / no-fast-intra / no-tskip-fast / no-cu-lossless / no-b-intra / no-splitrd-skip / rdpenalty=0 / psy-rd=2.00 / psy-rdoq=1.00 / no-rd-refine / no-lossless / cbqpoffs=0 / crqpoffs=0 / rc=abr / bitrate=4326 / qcomp=0.60 / qpstep=4 / stats-write=0 / stats-read=2 / cplxblur=20.0 / qblur=0.5 / ipratio=1.40 / pbratio=1.30 / aq-mode=3 / aq-strength=1.00 / cutree / zone-count=0 / no-strict-cbr / qg-size=32 / no-rc-grain / qpmax=69 / qpmin=0 / no-const-vbv / sar=0 / overscan=0 / videoformat=5 / range=0 / colorprim=2 / transfer=2 / colormatrix=2 / chromaloc=0 / display-window=0 / max-cll=0,0 / min-luma=0 / max-luma=1023 / log2-max-poc-lsb=8 / vui-timing-info / vui-hrd-info / slices=1 / no-opt-qp-pps / no-opt-ref-list-length-pps / multi-pass-opt-rps / scenecut-bias=0.05 / no-opt-cu-delta-qp / aq-motion / no-hdr / no-hdr-opt / no-dhdr10-opt / no-idr-recovery-sei / analysis-reuse-level=5 / scale-factor=0 / refine-intra=0 / refine-inter=0 / refine-mv=0 / no-limit-sao / ctu-info=0 / no-lowpass-dct / refine-mv-type=0 / copy-pic=1 / max-ausize-factor=1.0 / no-dynamic-refine / no-single-sei
    Language : English
    Default : Yes
    Forced : No

    Audio #1
    ID : 2
    Format : DTS
    Format/Info : Digital Theater Systems
    Mode : 16
    Format settings, Endianness : Big
    Codec ID : A_DTS
    Duration : 1 h 30 min
    Bit rate mode : Constant
    Bit rate : 755 kb/s
    Channel(s) : 6 channels
    Channel positions : Front: L C R, Side: L R, LFE
    Sampling rate : 48.0 kHz
    Frame rate : 93.750 FPS (512 SPF)
    Bit depth : 24 bits
    Compression mode : Lossy
    Stream size : 487 MiB (13%)
    Title : English DTS 5.1
    Language : English

    Default : Yes
    Forced : Yes

    Audio #2
    ID : 3
    Format : AC-3
    Format/Info : Audio Coding 3
    Format settings, Endianness : Big
    Codec ID : A_AC3
    Duration : 1 h 30 min
    Bit rate mode : Constant
    Bit rate : 640 kb/s
    Channel(s) : 6 channels
    Channel positions : Front: L C R, Side: L R, LFE
    Sampling rate : 48.0 kHz
    Frame rate : 31.250 FPS (1536 SPF)
    Bit depth : 16 bits
    Compression mode : Lossy
    Stream size : 413 MiB (11%)
    Title : English AC3 5.1
    Language : English
    Service kind : Complete Main
    Default : No
    Forced : No

    Text #1
    ID : 4
    Format : PGS
    Muxing mode : zlib
    Codec ID : S_HDMV/PGS
    Codec ID/Info : Picture based subtitle format used on BDs/HD-DVDs
    Duration : 1 h 11 min
    Bit rate : 2 139 b/s
    Count of elements : 302
    Stream size : 1.10 MiB (0%)
    Title : English
    Language : English
    Default : No
    Forced : No

    Text #2
    ID : 5
    Format : PGS
    Muxing mode : zlib
    Codec ID : S_HDMV/PGS
    Codec ID/Info : Picture based subtitle format used on BDs/HD-DVDs
    Duration : 1 h 29 min
    Bit rate : 1 568 b/s
    Count of elements : 340
    Stream size : 1.01 MiB (0%)
    Title : Thai PGS 4K UHD BluRay Master
    Language : Thai

    Default : Yes
    Forced : Yes

    Text #3
    ID : 6
    Format : PGS
    Muxing mode : zlib
    Codec ID : S_HDMV/PGS
    Codec ID/Info : Picture based subtitle format used on BDs/HD-DVDs
    Duration : 1 h 29 min
    Bit rate : 1 568 b/s
    Count of elements : 368
    Stream size : 1.00 MiB (0%)
    Title : Thai PGS 4K UHD BluRay Master LOW
    Language : Thai
    Default : No
    Forced : No

    Text #4
    ID : 7
    Format : VobSub
    Muxing mode : zlib
    Codec ID : S_VOBSUB
    Codec ID/Info : Picture based subtitle format used on DVDs
    Duration : 1 h 29 min
    Bit rate : 149 b/s
    Count of elements : 184
    Stream size : 98.0 KiB (0%)
    Title : Thai 480p
    Language : Thai
    Default : No
    Forced : No

    Text #5
    ID : 8
    Format : VobSub
    Muxing mode : zlib
    Codec ID : S_VOBSUB
    Codec ID/Info : Picture based subtitle format used on DVDs
    Duration : 1 h 29 min
    Bit rate : 490 b/s
    Count of elements : 184
    Stream size : 321 KiB (0%)
    Title : Thai 1080p
    Language : Thai
    Default : No
    Forced : Yes

    Text #6
    ID : 9
    Format : VobSub
    Muxing mode : zlib
    Codec ID : S_VOBSUB
    Codec ID/Info : Picture based subtitle format used on DVDs
    Duration : 1 h 29 min
    Bit rate : 490 b/s
    Count of elements : 184
    Stream size : 321 KiB (0%)
    Title : Thai 1080p LOW
    Language : Thai
    Default : No
    Forced : No

    ***MODIFIED BY @ENTHD***




    1080p SPMini HD

    [email protected]
    Format : Matroska
    Format version : Version 4 / Version 2
    File size : 3.89 GiB
    Duration : 1 h 30 min
    Overall bit rate : 6 166 kb/s
    Movie name : [email protected]
    Encoded date : UTC 2018-07-11 15:11:01
    Writing application : mkvmerge v20.0.0 ('I Am The Sun') 64-bit
    Writing library : libebml v1.3.5 + libmatroska v1.4.8
    Cover : Yes
    Attachments : cover.jpg

    Video
    ID : 1
    Format : AVC
    Format/Info : Advanced Video Codec
    Format profile : [email protected]
    Format settings, CABAC : Yes
    Format settings, RefFrames : 5 frames
    Codec ID : V_MPEG4/ISO/AVC
    Duration : 1 h 30 min
    Bit rate : 4 766 kb/s
    Width : 1 920 pixels
    Height : 800 pixels

    Display aspect ratio : 2.40:1
    Frame rate mode : Constant
    Frame rate : 23.976 (24000/1001) FPS
    Color space : YUV
    Chroma subsampling : 4:2:0
    Bit depth : 8 bits
    Scan type : Progressive
    Bits/(Pixel*Frame) : 0.129
    Stream size : 3.00 GiB (77%)
    Title : @@[email protected]@
    Writing library : x264 core 155 r2901 7d0ff22
    Encoding settings : cabac=1 / ref=5 / deblock=1:-3:-3 / analyse=0x3:0x133 / me=umh / subme=7 / psy=1 / psy_rd=1.00:0.15 / mixed_ref=1 / me_range=16 / chroma_me=1 / trellis=1 / 8x8dct=1 / cqm=0 / deadzone=21,11 / fast_pskip=0 / chroma_qp_offset=-3 / threads=12 / lookahead_threads=2 / sliced_threads=0 / nr=0 / decimate=1 / interlaced=0 / bluray_compat=0 / constrained_intra=0 / bframes=3 / b_pyramid=2 / b_adapt=2 / b_bias=0 / direct=3 / weightb=1 / open_gop=0 / weightp=2 / keyint=240 / keyint_min=24 / scenecut=40 / intra_refresh=0 / rc_lookahead=50 / rc=crf / mbtree=1 / crf=20.0 / qcomp=0.60 / qpmin=0 / qpmax=69 / qpstep=4 / ip_ratio=1.40 / aq=1:1.00
    Language : English
    Default : Yes
    Forced : No

    Audio #1
    ID : 2
    Format : DTS
    Format/Info : Digital Theater Systems
    Mode : 16
    Format settings, Endianness : Big
    Codec ID : A_DTS
    Duration : 1 h 30 min
    Bit rate mode : Constant
    Bit rate : 755 kb/s
    Channel(s) : 6 channels
    Channel positions : Front: L C R, Side: L R, LFE
    Sampling rate : 48.0 kHz
    Frame rate : 93.750 FPS (512 SPF)
    Bit depth : 24 bits
    Compression mode : Lossy
    Stream size : 487 MiB (12%)
    Title : English DTS 5.1
    Language : English

    Default : Yes
    Forced : Yes

    Audio #2
    ID : 3
    Format : AC-3
    Format/Info : Audio Coding 3
    Format settings, Endianness : Big
    Codec ID : A_AC3
    Duration : 1 h 30 min
    Bit rate mode : Constant
    Bit rate : 640 kb/s
    Channel(s) : 6 channels
    Channel positions : Front: L C R, Side: L R, LFE
    Sampling rate : 48.0 kHz
    Frame rate : 31.250 FPS (1536 SPF)
    Bit depth : 16 bits
    Compression mode : Lossy
    Stream size : 413 MiB (10%)
    Title : English AC3 5.1
    Language : English
    Service kind : Complete Main
    Default : No
    Forced : No

    Text #1
    ID : 4
    Format : PGS
    Muxing mode : zlib
    Codec ID : S_HDMV/PGS
    Codec ID/Info : Picture based subtitle format used on BDs/HD-DVDs
    Duration : 1 h 11 min
    Bit rate : 2 139 b/s
    Count of elements : 302
    Stream size : 1.10 MiB (0%)
    Title : English
    Language : English
    Default : No
    Forced : No

    Text #2
    ID : 5
    Format : PGS
    Muxing mode : zlib
    Codec ID : S_HDMV/PGS
    Codec ID/Info : Picture based subtitle format used on BDs/HD-DVDs
    Duration : 1 h 29 min
    Bit rate : 1 568 b/s
    Count of elements : 340
    Stream size : 1.01 MiB (0%)
    Title : Thai PGS 4K UHD BluRay Master
    Language : Thai

    Default : Yes
    Forced : Yes

    Text #3
    ID : 6
    Format : PGS
    Muxing mode : zlib
    Codec ID : S_HDMV/PGS
    Codec ID/Info : Picture based subtitle format used on BDs/HD-DVDs
    Duration : 1 h 29 min
    Bit rate : 1 568 b/s
    Count of elements : 368
    Stream size : 1.00 MiB (0%)
    Title : Thai PGS 4K UHD BluRay Master LOW
    Language : Thai
    Default : No
    Forced : No

    Text #4
    ID : 7
    Format : VobSub
    Muxing mode : zlib
    Codec ID : S_VOBSUB
    Codec ID/Info : Picture based subtitle format used on DVDs
    Duration : 1 h 29 min
    Bit rate : 149 b/s
    Count of elements : 184
    Stream size : 98.0 KiB (0%)
    Title : Thai 480p
    Language : Thai
    Default : No
    Forced : No

    Text #5
    ID : 8
    Format : VobSub
    Muxing mode : zlib
    Codec ID : S_VOBSUB
    Codec ID/Info : Picture based subtitle format used on DVDs
    Duration : 1 h 29 min
    Bit rate : 490 b/s
    Count of elements : 184
    Stream size : 321 KiB (0%)
    Title : Thai 1080p
    Language : Thai
    Default : No
    Forced : Yes

    Text #6
    ID : 9
    Format : VobSub
    Muxing mode : zlib
    Codec ID : S_VOBSUB
    Codec ID/Info : Picture based subtitle format used on DVDs
    Duration : 1 h 29 min
    Bit rate : 490 b/s
    Count of elements : 184
    Stream size : 321 KiB (0%)
    Title : Thai 1080p LOW
    Language : Thai
    Default : No
    Forced : No

    ***MODIFIED BY @ENTHD***




    1080p Mini HD

    [email protected]
    Format : Matroska
    Format version : Version 4 / Version 2
    File size : 4.57 GiB
    Duration : 1 h 30 min
    Overall bit rate : 7 243 kb/s
    Movie name : [email protected]
    Encoded date : UTC 2018-07-11 14:45:46
    Writing application : mkvmerge v20.0.0 ('I Am The Sun') 64-bit
    Writing library : libebml v1.3.5 + libmatroska v1.4.8
    Cover : Yes
    Attachments : cover.jpg

    Video
    ID : 1
    Format : AVC
    Format/Info : Advanced Video Codec
    Format profile : [email protected]
    Format settings, CABAC : Yes
    Format settings, RefFrames : 5 frames
    Codec ID : V_MPEG4/ISO/AVC
    Duration : 1 h 30 min
    Bit rate : 5 849 kb/s
    Width : 1 920 pixels
    Height : 800 pixels

    Display aspect ratio : 2.40:1
    Frame rate mode : Constant
    Frame rate : 23.976 (24000/1001) FPS
    Color space : YUV
    Chroma subsampling : 4:2:0
    Bit depth : 8 bits
    Scan type : Progressive
    Bits/(Pixel*Frame) : 0.159
    Stream size : 3.68 GiB (81%)
    Title : @@[email protected]@
    Writing library : x264 core 155 r2901 7d0ff22
    Encoding settings : cabac=1 / ref=5 / deblock=1:-3:-3 / analyse=0x3:0x133 / me=umh / subme=10 / psy=1 / psy_rd=1.00:0.25 / mixed_ref=1 / me_range=24 / chroma_me=1 / trellis=2 / 8x8dct=1 / cqm=0 / deadzone=6,6 / fast_pskip=0 / chroma_qp_offset=-4 / threads=12 / lookahead_threads=3 / sliced_threads=0 / nr=0 / decimate=0 / interlaced=0 / bluray_compat=0 / constrained_intra=0 / bframes=10 / b_pyramid=2 / b_adapt=2 / b_bias=0 / direct=1 / weightb=1 / open_gop=0 / weightp=2 / keyint=250 / keyint_min=23 / scenecut=40 / intra_refresh=0 / rc_lookahead=40 / rc=2pass / mbtree=1 / bitrate=5849 / ratetol=1.0 / qcomp=0.60 / qpmin=0 / qpmax=69 / qpstep=4 / cplxblur=20.0 / qblur=0.5 / vbv_maxrate=50000 / vbv_bufsize=62500 / nal_hrd=none / filler=0 / ip_ratio=1.10 / aq=1:0.70
    Language : English
    Default : Yes
    Forced : No

    Audio #1
    ID : 2
    Format : DTS
    Format/Info : Digital Theater Systems
    Mode : 16
    Format settings, Endianness : Big
    Codec ID : A_DTS
    Duration : 1 h 30 min
    Bit rate mode : Constant
    Bit rate : 755 kb/s
    Channel(s) : 6 channels
    Channel positions : Front: L C R, Side: L R, LFE
    Sampling rate : 48.0 kHz
    Frame rate : 93.750 FPS (512 SPF)
    Bit depth : 24 bits
    Compression mode : Lossy
    Stream size : 487 MiB (10%)
    Title : English DTS 5.1
    Language : English

    Default : Yes
    Forced : Yes

    Audio #2
    ID : 3
    Format : AC-3
    Format/Info : Audio Coding 3
    Format settings, Endianness : Big
    Codec ID : A_AC3
    Duration : 1 h 30 min
    Bit rate mode : Constant
    Bit rate : 640 kb/s
    Channel(s) : 6 channels
    Channel positions : Front: L C R, Side: L R, LFE
    Sampling rate : 48.0 kHz
    Frame rate : 31.250 FPS (1536 SPF)
    Bit depth : 16 bits
    Compression mode : Lossy
    Stream size : 413 MiB (9%)
    Title : English AC3 5.1
    Language : English
    Service kind : Complete Main
    Default : No
    Forced : No

    Text #1
    ID : 4
    Format : PGS
    Muxing mode : zlib
    Codec ID : S_HDMV/PGS
    Codec ID/Info : Picture based subtitle format used on BDs/HD-DVDs
    Duration : 1 h 11 min
    Bit rate : 2 139 b/s
    Count of elements : 302
    Stream size : 1.10 MiB (0%)
    Title : English
    Language : English
    Default : No
    Forced : No

    Text #2
    ID : 5
    Format : PGS
    Muxing mode : zlib
    Codec ID : S_HDMV/PGS
    Codec ID/Info : Picture based subtitle format used on BDs/HD-DVDs
    Duration : 1 h 29 min
    Bit rate : 1 568 b/s
    Count of elements : 340
    Stream size : 1.01 MiB (0%)
    Title : Thai PGS 4K UHD BluRay Master
    Language : Thai

    Default : Yes
    Forced : Yes

    Text #3
    ID : 6
    Format : PGS
    Muxing mode : zlib
    Codec ID : S_HDMV/PGS
    Codec ID/Info : Picture based subtitle format used on BDs/HD-DVDs
    Duration : 1 h 29 min
    Bit rate : 1 568 b/s
    Count of elements : 368
    Stream size : 1.00 MiB (0%)
    Title : Thai PGS 4K UHD BluRay Master LOW
    Language : Thai
    Default : No
    Forced : No

    Text #4
    ID : 7
    Format : VobSub
    Muxing mode : zlib
    Codec ID : S_VOBSUB
    Codec ID/Info : Picture based subtitle format used on DVDs
    Duration : 1 h 29 min
    Bit rate : 149 b/s
    Count of elements : 184
    Stream size : 98.0 KiB (0%)
    Title : Thai 480p
    Language : Thai
    Default : No
    Forced : No

    Text #5
    ID : 8
    Format : VobSub
    Muxing mode : zlib
    Codec ID : S_VOBSUB
    Codec ID/Info : Picture based subtitle format used on DVDs
    Duration : 1 h 29 min
    Bit rate : 490 b/s
    Count of elements : 184
    Stream size : 321 KiB (0%)
    Title : Thai 1080p
    Language : Thai
    Default : No
    Forced : Yes

    Text #6
    ID : 9
    Format : VobSub
    Muxing mode : zlib
    Codec ID : S_VOBSUB
    Codec ID/Info : Picture based subtitle format used on DVDs
    Duration : 1 h 29 min
    Bit rate : 490 b/s
    Count of elements : 184
    Stream size : 321 KiB (0%)
    Title : Thai 1080p LOW
    Language : Thai
    Default : No
    Forced : No

    ***MODIFIED BY @ENTHD***




    1080p FULL HD

    [email protected]ENTHD.mkv
    Format : Matroska
    Format version : Version 4 / Version 2
    File size : 11.2 GiB
    Duration : 1 h 30 min
    Overall bit rate mode : Variable
    Overall bit rate : 17.8 Mb/s
    Movie name : [email protected]ENTHD
    Encoded date : UTC 2018-07-12 03:16:15
    Writing application : mkvmerge v20.0.0 ('I Am The Sun') 64-bit
    Writing library : libebml v1.3.5 + libmatroska v1.4.8
    Cover : Yes
    Attachments : cover.jpg

    Video
    ID : 1
    Format : AVC
    Format/Info : Advanced Video Codec
    Format profile : [email protected]
    Format settings, CABAC : Yes
    Format settings, RefFrames : 5 frames
    Codec ID : V_MPEG4/ISO/AVC
    Duration : 1 h 30 min
    Bit rate : 9 762 kb/s
    Width : 1 920 pixels
    Height : 800 pixels

    Display aspect ratio : 2.40:1
    Frame rate mode : Constant
    Frame rate : 23.976 (24000/1001) FPS
    Color space : YUV
    Chroma subsampling : 4:2:0
    Bit depth : 8 bits
    Scan type : Progressive
    Bits/(Pixel*Frame) : 0.265
    Stream size : 6.15 GiB (55%)
    Title : @@[email protected]@
    Writing library : x264 core 155 r2901 7d0ff22
    Encoding settings : cabac=1 / ref=5 / deblock=1:-3:-3 / analyse=0x3:0x133 / me=umh / subme=8 / psy=1 / psy_rd=1.00:0.00 / mixed_ref=1 / me_range=16 / chroma_me=1 / trellis=1 / 8x8dct=1 / cqm=0 / deadzone=21,11 / fast_pskip=0 / chroma_qp_offset=-2 / threads=25 / lookahead_threads=4 / sliced_threads=0 / nr=0 / decimate=1 / interlaced=0 / bluray_compat=0 / constrained_intra=0 / bframes=3 / b_pyramid=2 / b_adapt=1 / b_bias=0 / direct=3 / weightb=1 / open_gop=0 / weightp=2 / keyint=250 / keyint_min=23 / scenecut=40 / intra_refresh=0 / rc_lookahead=50 / rc=2pass / mbtree=1 / bitrate=9762 / ratetol=1.0 / qcomp=0.60 / qpmin=0 / qpmax=69 / qpstep=4 / cplxblur=20.0 / qblur=0.5 / vbv_maxrate=62500 / vbv_bufsize=78125 / nal_hrd=none / filler=0 / ip_ratio=1.40 / aq=1:1.00
    Language : English
    Default : Yes
    Forced : No

    Audio #1
    ID : 2
    Format : TrueHD
    Format profile : TrueHD+Atmos / TrueHD
    Codec ID : A_TRUEHD

    Duration : 1 h 30 min
    Bit rate mode : Variable
    Bit rate : 3 890 kb/s
    Maximum bit rate : 8 064 kb/s
    Channel(s) : Object Based / 8 channels
    Channel positions : Object Based / Front: L C R, Side: L R, Back: L R, LFE
    Sampling rate : / 48.0 kHz
    Frame rate : 1 200.000 FPS (40 SPF)
    Compression mode : Lossless
    Stream size : 2.45 GiB (22%)
    Title : Eng TrueHD.7.1.Atmos
    Language : English

    Default : Yes
    Forced : Yes

    Audio #2
    ID : 3
    Format : DTS
    Format/Info : Digital Theater Systems
    Format profile : MA / Core
    Mode : 16
    Format settings, Endianness : Big
    Codec ID : A_DTS
    Duration : 1 h 30 min
    Bit rate mode : Variable / Constant
    Bit rate : 3 448 kb/s / 1 509 kb/s
    Channel(s) : 8 channels / 6 channels
    Channel positions : Front: L C R, Side: L R, Back: L R, LFE / Front: L C R, Side: L R, LFE
    Sampling rate : 48.0 kHz
    Frame rate : 93.750 FPS (512 SPF)
    Bit depth : 24 bits
    Compression mode : Lossless / Lossy
    Stream size : 2.17 GiB (19%)
    Title : Eng DTS-HD.MA.7.1
    Language : English

    Default : No
    Forced : No

    Audio #3
    ID : 4
    Format : AC-3
    Format/Info : Audio Coding 3
    Format settings, Endianness : Big
    Codec ID : A_AC3
    Duration : 1 h 30 min
    Bit rate mode : Constant
    Bit rate : 640 kb/s
    Channel(s) : 6 channels
    Channel positions : Front: L C R, Side: L R, LFE
    Sampling rate : 48.0 kHz
    Frame rate : 31.250 FPS (1536 SPF)
    Bit depth : 16 bits
    Compression mode : Lossy
    Stream size : 413 MiB (4%)
    Title : Eng AC3 5.1
    Language : English
    Service kind : Complete Main
    Default : No
    Forced : No

    Text #1
    ID : 5
    Format : PGS
    Muxing mode : zlib
    Codec ID : S_HDMV/PGS
    Codec ID/Info : Picture based subtitle format used on BDs/HD-DVDs
    Duration : 1 h 11 min
    Bit rate : 2 139 b/s
    Count of elements : 302
    Stream size : 1.10 MiB (0%)
    Title : English
    Language : English
    Default : No
    Forced : No

    Text #2
    ID : 6
    Format : PGS
    Muxing mode : zlib
    Codec ID : S_HDMV/PGS
    Codec ID/Info : Picture based subtitle format used on BDs/HD-DVDs
    Duration : 1 h 29 min
    Bit rate : 1 568 b/s
    Count of elements : 340
    Stream size : 1.01 MiB (0%)
    Title : Thai PGS 4K UHD BluRay Master
    Language : Thai

    Default : Yes
    Forced : Yes

    Text #3
    ID : 7
    Format : PGS
    Muxing mode : zlib
    Codec ID : S_HDMV/PGS
    Codec ID/Info : Picture based subtitle format used on BDs/HD-DVDs
    Duration : 1 h 29 min
    Bit rate : 1 568 b/s
    Count of elements : 368
    Stream size : 1.00 MiB (0%)
    Title : Thai PGS 4K UHD BluRay Master LOW
    Language : Thai
    Default : No
    Forced : No

    Text #4
    ID : 8
    Format : VobSub
    Muxing mode : zlib
    Codec ID : S_VOBSUB
    Codec ID/Info : Picture based subtitle format used on DVDs
    Duration : 1 h 29 min
    Bit rate : 149 b/s
    Count of elements : 184
    Stream size : 98.0 KiB (0%)
    Title : Thai 480p
    Language : Thai
    Default : No
    Forced : No

    Text #5
    ID : 9
    Format : VobSub
    Muxing mode : zlib
    Codec ID : S_VOBSUB
    Codec ID/Info : Picture based subtitle format used on DVDs
    Duration : 1 h 29 min
    Bit rate : 490 b/s
    Count of elements : 184
    Stream size : 321 KiB (0%)
    Title : Thai 1080p
    Language : Thai
    Default : No
    Forced : Yes

    Text #6
    ID : 10
    Format : VobSub
    Muxing mode : zlib
    Codec ID : S_VOBSUB
    Codec ID/Info : Picture based subtitle format used on DVDs
    Duration : 1 h 29 min
    Bit rate : 490 b/s
    Count of elements : 184
    Stream size : 321 KiB (0%)
    Title : Thai 1080p LOW
    Language : Thai
    Default : No
    Forced : No

    ***MODIFIED BY @ENTHD***




    1080p BDRM Remux Full Bitrate

    BDRM[FullRip]A.[email protected]ENTHD.mkv
    Format : Matroska
    Format version : Version 4 / Version 2
    File size : 20.9 GiB
    Duration : 1 h 30 min
    Overall bit rate mode : Variable
    Overall bit rate : 33.1 Mb/s
    Movie name : BDRM[FullRip]A.[email protected]ENTHD
    Encoded date : UTC 2018-07-12 02:44:41
    Writing application : mkvmerge v20.0.0 ('I Am The Sun') 64-bit
    Writing library : libebml v1.3.5 + libmatroska v1.4.8
    Cover : Yes
    Attachments : cover.jpg

    Video
    ID : 1
    Format : AVC
    Format/Info : Advanced Video Codec
    Format profile : [email protected]
    Format settings, CABAC : Yes
    Format settings, RefFrames : 4 frames
    Codec ID : V_MPEG4/ISO/AVC
    Duration : 1 h 30 min
    Bit rate mode : Variable
    Bit rate : 24.3 Mb/s
    Maximum bit rate : 27.0 Mb/s
    Width : 1 920 pixels
    Height : 1 080 pixels

    Display aspect ratio : 16:9
    Frame rate mode : Constant
    Frame rate : 23.976 (24000/1001) FPS
    Color space : YUV
    Chroma subsampling : 4:2:0
    Bit depth : 8 bits
    Scan type : Progressive
    Bits/(Pixel*Frame) : 0.489
    Stream size : 15.3 GiB (73%)
    Title : @@[email protected]@
    Language : English
    Default : No
    Forced : No

    Audio #1
    ID : 2
    Format : TrueHD
    Format profile : TrueHD+Atmos / TrueHD
    Codec ID : A_TRUEHD

    Duration : 1 h 30 min
    Bit rate mode : Variable
    Bit rate : 3 890 kb/s
    Maximum bit rate : 8 064 kb/s
    Channel(s) : Object Based / 8 channels
    Channel positions : Object Based / Front: L C R, Side: L R, Back: L R, LFE
    Sampling rate : / 48.0 kHz
    Frame rate : 1 200.000 FPS (40 SPF)
    Compression mode : Lossless
    Stream size : 2.45 GiB (12%)
    Title : Eng TrueHD.7.1.Atmos
    Language : English

    Default : Yes
    Forced : Yes

    Audio #2
    ID : 3
    Format : DTS
    Format/Info : Digital Theater Systems
    Format profile : MA / Core
    Mode : 16
    Format settings, Endianness : Big
    Codec ID : A_DTS
    Duration : 1 h 30 min
    Bit rate mode : Variable / Constant
    Bit rate : 3 448 kb/s / 1 509 kb/s
    Channel(s) : 8 channels / 6 channels
    Channel positions : Front: L C R, Side: L R, Back: L R, LFE / Front: L C R, Side: L R, LFE
    Sampling rate : 48.0 kHz
    Frame rate : 93.750 FPS (512 SPF)
    Bit depth : 24 bits
    Compression mode : Lossless / Lossy
    Stream size : 2.17 GiB (10%)
    Title : Eng DTS-HD.MA.7.1
    Language : English

    Default : No
    Forced : No

    Audio #3
    ID : 4
    Format : AC-3
    Format/Info : Audio Coding 3
    Format settings, Endianness : Big
    Codec ID : A_AC3
    Duration : 1 h 30 min
    Bit rate mode : Constant
    Bit rate : 640 kb/s
    Channel(s) : 6 channels
    Channel positions : Front: L C R, Side: L R, LFE
    Sampling rate : 48.0 kHz
    Frame rate : 31.250 FPS (1536 SPF)
    Bit depth : 16 bits
    Compression mode : Lossy
    Stream size : 413 MiB (2%)
    Title : A.Quiet.Place.2018.1080p.BluRay.REMUX.AVC.DTS-HD.MA.TrueHD.7.1.Atmos-FGT
    Language : English
    Service kind : Complete Main
    Default : No
    Forced : No

    Audio #4
    ID : 5
    Format : DTS
    Format/Info : Digital Theater Systems
    Mode : 16
    Format settings, Endianness : Big
    Codec ID : A_DTS
    Duration : 1 h 30 min
    Bit rate mode : Constant
    Bit rate : 755 kb/s
    Channel(s) : 6 channels
    Channel positions : Front: L C R, Side: L R, LFE
    Sampling rate : 48.0 kHz
    Frame rate : 93.750 FPS (512 SPF)
    Bit depth : 24 bits
    Compression mode : Lossy
    Stream size : 487 MiB (2%)
    Title : English DTS 5.1
    Language : English
    Default : No
    Forced : Yes

    Text #1
    ID : 6
    Format : PGS
    Muxing mode : zlib
    Codec ID : S_HDMV/PGS
    Codec ID/Info : Picture based subtitle format used on BDs/HD-DVDs
    Duration : 1 h 11 min
    Bit rate : 2 139 b/s
    Count of elements : 302
    Stream size : 1.10 MiB (0%)
    Title : English
    Language : English
    Default : No
    Forced : No

    Text #2
    ID : 7
    Format : PGS
    Muxing mode : zlib
    Codec ID : S_HDMV/PGS
    Codec ID/Info : Picture based subtitle format used on BDs/HD-DVDs
    Duration : 1 h 29 min
    Bit rate : 1 568 b/s
    Count of elements : 340
    Stream size : 1.01 MiB (0%)
    Title : Thai PGS 4K UHD BluRay Master
    Language : Thai

    Default : Yes
    Forced : Yes

    Text #3
    ID : 8
    Format : PGS
    Muxing mode : zlib
    Codec ID : S_HDMV/PGS
    Codec ID/Info : Picture based subtitle format used on BDs/HD-DVDs
    Duration : 1 h 29 min
    Bit rate : 1 568 b/s
    Count of elements : 368
    Stream size : 1.00 MiB (0%)
    Title : Thai PGS 4K UHD BluRay Master LOW
    Language : Thai
    Default : No
    Forced : No

    Text #4
    ID : 9
    Format : VobSub
    Muxing mode : zlib
    Codec ID : S_VOBSUB
    Codec ID/Info : Picture based subtitle format used on DVDs
    Duration : 1 h 29 min
    Bit rate : 149 b/s
    Count of elements : 184
    Stream size : 98.0 KiB (0%)
    Title : Thai 480p
    Language : Thai
    Default : No
    Forced : No

    Text #5
    ID : 10
    Format : VobSub
    Muxing mode : zlib
    Codec ID : S_VOBSUB
    Codec ID/Info : Picture based subtitle format used on DVDs
    Duration : 1 h 29 min
    Bit rate : 490 b/s
    Count of elements : 184
    Stream size : 321 KiB (0%)
    Title : Thai 1080p
    Language : Thai
    Default : No
    Forced : Yes

    Text #6
    ID : 11
    Format : VobSub
    Muxing mode : zlib
    Codec ID : S_VOBSUB
    Codec ID/Info : Picture based subtitle format used on DVDs
    Duration : 1 h 29 min
    Bit rate : 490 b/s
    Count of elements : 184
    Stream size : 321 KiB (0%)
    Title : Thai 1080p LOW
    Language : Thai
    Default : No
    Forced : No

    ***MODIFIED BY @ENTHD***












    อย่าส่งเสียงออกมา เพราะว่าคุณจะถูกตามล่า พบกับตัวอย่างแรก A Quiet Place ดินแดนไร้เสียง
    A Quiet Place ดินแดนไร้เสียง เปิดรอบปฐมทัศน์ที่เทศกาลภาพยนตร์ SXSW ที่เมืองออสติน รัฐเท็กซัส โดยจอห์น คราซินสกี้
    นักแสดงนำและผู้กำกับ พร้อมด้วยเอมิลี่ บลันท์, มิลิเซนท์ ซิมมอนด์ และโนอาห์ จู๊ป
    รวมถึงทีมผู้สร้างจากแพลตตินั่ม ดูนส์ อย่างไมเคิล เบย์, แบรด ฟูลเลอร์ และแอนดรูว์ ฟอร์ม มาร่วมงานด้วย!!!

    ภาพยนตร์เรื่องนี้ได้รับผลตอบรับจากนักวิจารณ์อย่างด ีเยี่ยม โดยคะแนนจากนักวิจารณ์ที่เว็บมะเขือเน่า Rotten Tomatoes อยู่ที่ 100 เปอร์เซนต์
    ด้วยคะแนนเฉลี่ยสูงถึง 8.9 คะแนน จากนักวิจารณ์ 16 คน พร้อมกับคำชมจากนักวิจารณ์ที่พูดเป็นเสียงเดียวกันว่ าภาพยนตร์เรื่องนี้ระทึกตั้งแต่ต้นจนจบ

    **ตัวอย่างเช่น**
    #“หนังสุดระทึกที่จะทำให้หัวใจเต้นรัวและเล่นกับความ คาดหวังของผู้ชม แต่หนังก็ไม่ได้ทำให้ตัวละครออกมาดูโง่ พูดได้ว่า
    นี่คือหนังสยองขวัญที่ดีอีกเรื่องจริง ๆ” ไบรอัน ทอลเลอริโก้ - RogerEbert

    #“บางครั้ง การเข้าใจด้านการสร้างสรรค์หรืออะไรก็ตามของหนังสยอง ขวัญ
    และยอมรับมันคือความสนุกของหนัง A Quiet Place คือหนังแบบนั้น” โอเว่น ไกลเบอร์แมน – Variety

    #“น่าตื่นเต้นและน่ากลัวอย่างแท้จริง” จอห์น เดอฟอร์ – Hollywood Reporter

    #“A Quiet Place พัฒนาการบรรยายเรื่องราวเขย่าขวัญโดยใช้กลเม็ดที่สมบ ูรณ์แบบสำหรับการเล่าเรื่องในโรงหนัง” เอริค โคห์น –IndieWire

    #“นี่อาจไม่ใช่หนังสยองขวัญที่ลึกที่สุดหรือมีความทะ เยอทะยานมากที่สุด เป็นหนังมีแนวคิดหลักเรียบง่าย
    แต่สามารถเป็นสื่อที่ส่งมอบความหวาดกลัวได้อย่างแท้จ ริงและลงลึกถึงภายใน” แองจี้ ฮาน – Mashable


    ---------------------------------------------------------------------------------------------------------------

    ***ข้อแนะนำในการโหลดไฟล์จากเว็บต่างๆ***

    ###ควรใช้ IDM ในการโหลด และควรตั้งค่าเริ่มต้นเชื่อมต่อ ตั้งแต่ 8 ขึ้นไป ส่วนในกรณีที่ IDM ไม่ขึ้นตอนกดโหลดให้ติดตั้งส่วนขยายของ IDM ในเบราว์เซอร์ที่ใช้ ##




    ZONE 4K UHD

    4K UHD Mini HD

    http://cornfile.com/f6uw6k8gyday

    4K Full HD

    http://cornfile.com/k4cpvlf1zhtx

    4K BDRM Remux Full Bitrate

    http://cornfile.com/je7usucn20va

    ------------------------------------------

    ZONE 1080p

    1080p SPMini HD HEVC

    http://cornfile.com/7gjifeimsqpv

    1080p SPMini HD

    http://cornfile.com/hdr727dcb5h8


    1080p Mini HD

    http://cornfile.com/on38f0847ymf

    1080p FULL HD

    http://cornfile.com/vbkssynoo59h

    1080p BDRM Remux Full Bitrate

    http://cornfile.com/f2b2y6xur67t


    >>สมัคร VIP cornfile <<

    >> วิธีสมัคร VIP cornfile <<



    1080p SPMini HD

    1 PART

    DOWNLOAD



    1080p SPMini HD HEVC

    1 PART
    DOWNLOAD

    1080p SPMini HD

    1 PART
    DOWNLOAD




    1080p SPMini HD

    PART1
    PART2
    PART3
    PART4
    PART5

    PASS: enthdmovieclub.blogspot.com



    ติดตามอัพเดตเรื่องอื่นๆได้ที่

    http://enthdmovieclub.blogspot.com/
    Last edited by @@[email protected]@; 07-13-2018 at 08:30 AM.

  2. #2
    Senior Member
    Join Date
    Feb 2018
    Posts
    337
    Thanks
    0
    Thanked 101 Times in 74 Posts
    แก้ไขลิ๊งที่โหลดไม่ได้ใหม่

+ Reply to Thread

Thread Information

Users Browsing this Thread

There are currently 1 users browsing this thread. (0 members and 1 guests)

     

Tags for this Thread

Posting Permissions

  • You may not post new threads
  • You may not post replies
  • You may not post attachments
  • You may not edit your posts