PG-13 | 1h 47min | Action, Adventure, Sci-Fi | 13 April 2018 (USA)

Director: Brad Peyton
Writers: Ryan Engle (screenplay by), Carlton Cuse (screenplay by)
Stars: Dwayne Johnson, Naomie Harris, Malin Akerman

When three different animals become infected with a dangerous pathogen, a primatologist and a geneticist team up to stop them from destroying Chicago.


ภาพยนตร์แอ็คชั่นผจญภัย Rampage คือเรื่องราวของนักวานรวิทยา ดาวิส โอโคเย (จอห์นสัน) ชายผู้หลบเลี่ยงห่างไกลจากผู้คน เขามีสายสัมพันธ์อันแน่นหนาที่ไม่มีวันสั่นคลอนกับจอ ร์จ กอริล่าหลังเงินที่เฉลียวฉลาดยิ่งกว่ากอริลล่าทั่วไป ที่เขาเป็นผู้เลี้ยงดูมาตั้งแต่มันเกิด แต่แล้วยีนส์แห่งความโหดร้ายในร่างมันได้เกิดการกลาย พันธุ์ และเปลี่ยนกอริลล่าแสนสุภาพตัวนี้ให้กลายเป็นสิ่งมีช ีวิตที่โหดร้ายตัวใหญ่ยักษ์ และทุกสิ่งเลวร้ายยิ่งขึ้น เมื่อได้มีการค้นพบว่า แท้จริงแล้วยังมีสัตว์อื่นอีกมายมายที่เกิดการกลายพั นธุ์เช่นเดียวกัน พวกมันกลายเป็นนักล่าที่อยู่เหนือทุกขีวิตและมุ่งหน้ าสู่อเมริกาเหนือ ทำลายทุกสิ่งที่ขวางทางของพวกมัน กลุ่มของโอโคเยและนักพันธุวิศวกรรมผู้ไม่น่าเชื่อถือ ต้องปกป้องแอนติโดส ต่อสู้กับอุปสรรคขวากหนามและปัญหามากมายที่มาเยือนอย ่างไม่ซ้ำ ไม่เพียงเพื่อหยุดยั้งจุดจบของโลก ทว่าเพื่อช่วยสิ่งมีชีวิตที่น่าหวาดหวั่น ที่ครั้งหนึ่ง เคยเป็นเพื่อนของเขาเอง



Rampage ยังประกอบไปด้วยนักแสดงผู้เข้าชิงออสการ์ นาโอมิ แฮร์ริส, มาลีน เอเคอร์แมน, เจค เลซี่, โจ แมนเกนเนโล่, เจฟฟรีย์ ดีน มอร์แกน ร่วมด้วย พีเจ เบิร์น, มาร์ลีย์ เชลตัน, บรีแอนน์ ฮิลล์, แจ็ค เควด, แมตต์ เจรัลด์ กำกับโดย เพย์ตันกำกับ จากบทโดยไรอัน แอนเกิล, คาร์ลตัน คิวส์, ไรอัน เจ. คอนดัล และ อดัม ซิสติคีล เรื่องโดย ไรอัน แอนเกิล ดัดแปลงจาดวีดีโอเกม Rampage



Rampage อำนวยการสร้างโดย โบ ฟลินน์, จอห์น ริคการ์ด, แบรด เพย์ตัน และ ไฮแรม การ์เซีย เป็นการร่วมงานกันเป็นครั้งที่สามระหว่าง จอห์นสัน, เพย์ตัน และฟลินน์ หลังจากภาพยนตร์บล็อคบัสเตอร์เรื่องล่าสุดอย่าง San Andreas กำกับการแสดงโดย แบรด เพย์ตัน
[/SIZE][/FONT][/COLOR][/B]


[B][COLOR=DarkGreen][FONT=century gothic][SIZE=4]
General
Unique ID : 176104000844455513666155840997502811328 (0x847C65984EA39D5E88698BAA6160FCC0)
Complete name : Rampage (2018) 4K - CtHts.mkv
Format : Matroska
Format version : Version 4 / Version 2
File size : 47.5 GiB
Duration : 1 h 47 min
Overall bit rate mode : Variable
Overall bit rate : 63.4 Mb/s
Movie name : Rampage (2018) 4K - CtHts
Encoded date : UTC 2018-07-11 03:48:28
Writing application : mkvmerge v9.4.0 ( Knurl ) 32bit
Writing library : libebml v1.3.4 + libmatroska v1.4.5

Video
ID : 1
Format : HEVC
Format/Info : High Efficiency Video Coding
Format profile : Main [email protected]@High
Codec ID : V_MPEGH/ISO/HEVC
Duration : 1 h 47 min
Bit rate : 59.5 Mb/s
Width : 3 840 pixels
Height : 2 160 pixels
Display aspect ratio : 16:9
Frame rate mode : Constant
Frame rate : 23.976 (24000/1001) FPS
Color space : YUV
Chroma subsampling : 4:2:0 (Type 2)
Bit depth : 10 bits
Bits/(Pixel*Frame) : 0.299
Stream size : 44.6 GiB (94%)
Title : Rampage (2018) 4K - CtHts
Language : English
Default : Yes
Forced : Yes
Color range : Limited
Color primaries : BT.2020
Transfer characteristics : SMPTE ST 2084
Matrix coefficients : BT.2020 non-constant
Mastering display color pri : R: x=0.680000 y=0.320000, G: x=0.265000 y=0.690000, B: x=0.150000 y=0.060000, White point: x=0.312700 y=0.329000
Mastering display luminance : min: 0.0001 cd/m2, max: 1000.0000 cd/m2
Maximum Content Light Level : 494 cd/m2
Maximum Frame-Average Light : 364 cd/m2

Audio #1
ID : 2
Format : Atmos / TrueHD
Codec ID : A_TRUEHD
Duration : 1 h 47 min
Bit rate mode : Variable
Bit rate : 3 279 kb/s
Maximum bit rate : 5 205 kb/s
Channel(s) : Object Based / 8 channels
Channel positions : Object Based / Front: L C R, Side: L R, Back: L R, LFE
Sampling rate : / 48.0 kHz
Frame rate : 1 200.000 FPS (40 spf)
Compression mode : Lossless
Stream size : 2.46 GiB (5%)
Title : Eng Dolby Atmos 7.1.4 from 4K BD Master
Language : English
Default : No
Forced : No

Audio #2
ID : 3
Format : AC-3
Format/Info : Audio Coding 3
Mode extension : CM (complete main)
Format settings, Endianness : Big
Codec ID : A_AC3
Duration : 1 h 47 min
Bit rate mode : Constant
Bit rate : 448 kb/s
Channel(s) : 6 channels
Channel positions : Front: L C R, Side: L R, LFE
Sampling rate : 48.0 kHz
Frame rate : 31.250 FPS (1536 spf)
Bit depth : 16 bits
Compression mode : Lossy
Stream size : 344 MiB (1%)
Title : Thai Dolby Digital 5.1 from 4K BD Master
Language : Thai
Default : Yes
Forced : Yes

Text #1
ID : 4
Format : VobSub
Codec ID : S_VOBSUB
Codec ID/Info : Picture based subtitle format used on DVDs
Duration : 1 h 46 min
Bit rate : 7 585 b/s
Count of elements : 1300
Stream size : 5.79 MiB (0%)
Title : Thai 1080p from 4K BD Master
Language : Thai
Default : No
Forced : No

Text #2
ID : 5
Format : VobSub
Codec ID : S_VOBSUB
Codec ID/Info : Picture based subtitle format used on DVDs
Duration : 1 h 46 min
Bit rate : 7 585 b/s
Count of elements : 1300
Stream size : 5.79 MiB (0%)
Title : Thai 1080p Outside from 4K BD Master
Language : Thai
Default : No
Forced : No

Text #3
ID : 6
Format : PGS
Codec ID : S_HDMV/PGS
Codec ID/Info : Picture based subtitle format used on BDs/HD-DVDs
Duration : 1 h 46 min
Bit rate : 28.7 kb/s
Count of elements : 2600
Stream size : 21.9 MiB (0%)
Title : Thai PGS from 4K BD Master
Language : Thai
Default : No
Forced : No

Text #4
ID : 7
Format : PGS
Codec ID : S_HDMV/PGS
Codec ID/Info : Picture based subtitle format used on BDs/HD-DVDs
Duration : 1 h 46 min
Bit rate : 28.7 kb/s
Count of elements : 2600
Stream size : 21.9 MiB (0%)
Title : Thai PGS Outside from 4K BD Master
Language : Thai
Default : No
Forced : No

Text #5
ID : 8
Format : VobSub
Codec ID : S_VOBSUB
Codec ID/Info : Picture based subtitle format used on DVDs
Duration : 1 h 45 min
Bit rate : 9 315 b/s
Count of elements : 1544
Stream size : 7.05 MiB (0%)
Title : Eng 1080p from 4K BD Master
Language : English
Default : No
Forced : No

Text #6
ID : 9
Format : PGS
Codec ID : S_HDMV/PGS
Codec ID/Info : Picture based subtitle format used on BDs/HD-DVDs
Duration : 1 h 45 min
Bit rate : 34.6 kb/s
Count of elements : 3088
Stream size : 26.1 MiB (0%)
Title : Eng PGS from 4K BD Master
Language : English
Default : No
Forced : No





Download: cornfile
http://cornfile.com/i3kgz5zyyl4s
Download: mekafile
http://www.mekafile.com/dl.php?f=ECb546bHsv6M