+ Reply to Thread
Results 1 to 2 of 2
  1. #1
    Administrators Duckload.us's Avatar
    Join Date
    Dec 2010
    Posts
    92,079
    Thanks
    9
    Thanked 94,678 Times in 45,590 Posts

    Question []-Lolita (1997) ͧ˹觻ҡҡѡ-WEB-DL.H.264.720p. [Modified]-[ҡ]



    ͧ
    쵪¡ҧŧѡԵ˭ԧ 12 Ҩ֧觧ҹѺͧԵ ͵ŧ ѹѺ ͧԵҨ֧͵Ǣ...

    Format : Matroska
    Format version : Version 4 / Version 2
    File size : 2.77 GiB
    Duration : 2 h 8 min
    Overall bit rate mode : Variable
    Overall bit rate : 3 098 kb/s
    Encoded date : UTC 2018-07-10 16:25:10
    Writing application : mkvmerge v24.0.0 ( Beyond The Pale ) 64-bit
    Writing library : libebml v1.3.6 + libmatroska v1.4.9

    Video
    ID : 1
    Format : AVC
    Format/Info : Advanced Video Codec
    Format profile : [email protected]
    Format settings : CABAC / 1 Ref Frames
    Format settings, CABAC : Yes
    Format settings, ReFrames : 1 frame
    Codec ID : V_MPEG4/ISO/AVC
    Duration : 2 h 8 min
    Bit rate mode : Variable
    Bit rate : 1 856 kb/s
    Maximum bit rate : 2 000 kb/s
    Width : 1 280 pixels
    Height : 720 pixels
    Display aspect ratio : 16:9
    Frame rate mode : Constant
    Frame rate : 23.976 (24000/1001) FPS
    Color space : YUV
    Chroma subsampling : 4:2:0
    Bit depth : 8 bits
    Scan type : Progressive
    Bits/(Pixel*Frame) : 0.084
    Stream size : 1.66 GiB (60%)
    Language : French
    Default : Yes
    Forced : No

    Audio
    ID : 2
    Format : FLAC
    Format/Info : Free Lossless Audio Codec
    Codec ID : A_FLAC
    Duration : 2 h 8 min
    Bit rate mode : Variable
    Bit rate : 1 240 kb/s
    Channel(s) : 2 channels
    Channel positions : Front: L R
    Sampling rate : 44.1 kHz
    Frame rate : 9.570 FPS (4608 SPF)
    Bit depth : 24 bits
    Stream size : 1.11 GiB (40%)
    Language : Thai
    Default : Yes
    Forced : No



    Download: cornfile
    http://cornfile.com/2hoi8q1si1mx
    Download: mekafile
    http://www.mekafile.com/dl.php?f=joe3a0bHsLZJ

  2. #2
    Senior Member
    Join Date
    Jul 2012
    Posts
    5,583
    Thanks
    0
    Thanked 0 Times in 0 Posts
    ͺسҡ

Thread Information

Users Browsing this Thread

There are currently 1 users browsing this thread. (0 members and 1 guests)

     

Posting Permissions

  • You may not post new threads
  • You may not post replies
  • You may not post attachments
  • You may not edit your posts