+ Reply to Thread
Results 1 to 2 of 2
  1. #1
    Administrators Duckload.us's Avatar
    Join Date
    Dec 2010
    Posts
    92,079
    Thanks
    9
    Thanked 94,678 Times in 45,590 Posts

    Question []-HIGH&LOW THE MOVIE 3 FINAL MISSION-Blu-ray.H.264.720p. [Master]-[Soundtrack ()]



    High & Low: The Movie 3 - Final Mission



    Rating: 8/10 Year: 2017 Genres: Action / Drama Runtime: 118 min Language: Japanese Director: Shigeaki Kubo / Tsuyoshi Nakakuki Writers: Norihisa Hiranuma / Kei Watanabe / Daisuke Kamijô Cast: Ryôhei Abe / Akira / Kôsei Amano


    ͻԴԴҹҢͧѰ ǴԹõἹ÷ͧҧ ش Ҫԡͧ SWORD ͹شѹ Ҵٺػͧ Series HIG&LOW ѹ

    In order to conceal past corruption by the government, the Kyuryu group proceeds on a plan to destroy a street and build a casino. To stop the Kyuryu group, members of SWORD begin to move.


    Directors: Shigeaki Kubo, Tsuyoshi Nakakuki
    Writers: Norihisa Hiranuma (screenplay), Kei Watanabe (screenplay)
    Stars: Ry hei Abe, Akira, K sei Amano

    Official site: HIGH&LOW Official Site
    Country: Japan
    Language: Japanese
    Release Date: 11 November 2017 (Japan)

    General
    Complete name: HIGH&LOW THE MOVIE 3 Final Mission 2017.mp4
    Format: MPEG-4
    Format profile: Base Media
    Codec ID: isom (isom/iso2/avc1/mp41)
    File size: 3.41 GiB
    Duration: 1 h 58 min
    Overall Bitrate: 4 121 kb/s
    Movie name: HIGH&LOW THE MOVIE 3 Final Mission 2017
    Writing application: Lavf56.36.100
    Comment: Thai Sub by C.Padet

    Video
    ID: 1
    Format: AVC
    Format/ Info: Advanced Video Codec
    Format profile: [email protected]
    Format settings: 2 Ref Frames
    Format settings, CABAC: No
    Format settings, ReFrames: 2 frames
    Codec ID: avc1
    Codec ID/ Info: Advanced Video Coding
    Duration: 1 h 58 min
    Bitrate : 4 000 kb/s
    Width: 1 280 pixels
    Height: 536 pixels
    Display aspect ratio: 2.40:1
    Frame rate mode: Constant
    Frame rate: 25.000 FPS
    Color space: YUV
    Chroma subsampling: 4:2:0
    Bit depth: 8 bits
    Scan type: Progressive
    Bits/(Pixel*Frame): 0.233
    Stream size: 3.30 GiB (97%)
    Writing library: x264 core 148 r2579 73ae2d1
    Language: Japanese
    Menus: 3

    Audio
    ID: 2
    Format: AAC
    Format/ Info: Advanced Audio Codec
    Format profile: LC
    Codec ID: mp4a-40-2
    Duration: 1 h 58 min
    Duration_LastFrame: -21 ms
    Bit rate mode: Constant
    Bitrate: 128 kb/s
    Channel(s): 2 channels
    Channel positions: Front: L R
    Sampling rate: 44.1 kHz
    Frame rate: 43.066 FPS (1024 SPF)
    Compression mode: Lossy
    Stream size: 108 MiB (3%)
    Language: Japanese
    Default: Yes
    Alternate group: 1
    Menus: 3






    Download: cornfile
    http://cornfile.com/9rb0hffq4ccu
    Download: mekafile
    http://www.mekafile.com/dl.php?f=NZ4201bIwMgn

  2. The Following User Says Thank You to Duckload.us For This Useful Post:

    apichartdear (08-07-2018)

  3. #2
    Senior Member
    Join Date
    Oct 2013
    Posts
    1,126
    Thanks
    0
    Thanked 0 Times in 0 Posts
    ͺسѺ

Thread Information

Users Browsing this Thread

There are currently 1 users browsing this thread. (0 members and 1 guests)

     

Posting Permissions

  • You may not post new threads
  • You may not post replies
  • You may not post attachments
  • You may not edit your posts