มาร์เวล สตูดิโอส์ ภูมิใจเสนอ ดิ อเวนเจอร์ส การรวมตัวของเหล่าสุดยอดซูเปอร์ฮีโร่ครั้งแรกในประวั ติศาสตร์

ที่ประกอบไปด้วยซูเปอร์ฮีโร่จากมาร์เวลอย่าง ไอรอน แมน, ดิ อินเครดิเบิ้ล ฮัลค์, ธอร์, กัปตัน อเมริกา, ฮอร์คอาย และ แบล็ควิโดว์

• • •

2160p.BluRay.REMUX.HEVC.DTS-HD.MA.TrueHD.7.1


อภิมหาภาพยนตร์รวมเหล่าซูเปอร์ฮีโร่จากมาร์เวล ที่ผู้ชมทั้งโลกรอคอย “ดิ อเวนเจอร์ส” รับหน้าที่กำกับและเขียนบทโดย “จอส วีดอน” หนังจะเดินหน้าถ่ายทำไปตามเมืองต่างๆอย่าง คลีฟแลนด์, โอไฮโอ, และ นิว ยอร์ค ซิตี้

“โรเบิร์ต ดาวนี่ย์ จูเนียร์” กลับมารับบท “โทนี่ สตาร์ค” และ “ไอรอน แมน” อีกครั้งรวมถึง “คริส แฮมส์เวิร์ธ” ในบท “ธอร์”, คริส อีแวนส์ ในบท “กัปตัน อเมริกา”, “เจเรมี เรนเนอร์” เป็น “ฮอร์คอาย”, “มาร์ค รัฟฟาโร” เป็น “ฮัลค์”, “สการ์เลต โจแฮนสัน” เป็น “แบล็ค วิโดว์”, “คลาร์ก เกร็ก” เป็น “เจ้าหน้าที่ ฟิล โคลสัน” และ “แซมูเอล แอล. แจ็คสัน” เป็น “นิค ฟิวรี่” ซึ่งมีกำหนดเข้าฉายในวันที่ 4 พฤษภาคม 2012 “ดิ อเวนเจอร์ส” จะเป็นหนังซูเปอร์ฮีโร่ของมาร์เวลเรื่องแรกที่ ดิสนีย์ จะเป็นผู้ทำการตลาดและจัดจำหน่ายอย่างเต็มตัวหลังจาก ที่ มาร์เวล สตูดิโอส์ ได้กลายเป็นส่วนหนึ่งในอาณาจักรของดิสนีย์มาตั้งแต่ป ี 2009

จากความสำเร็จอย่างล้นหลามของหนังซูเปอร์ฮีโร่ที่เริ ่มต้นจาก “ไอรอน แมน”, “ดิ อินเครดิเบิ้ล ฮัลค์”, “ไอรอน แมน 2”, “ธอร์”, และ “กัปตัน อเมริกา: อเวนเจอร์ที่ 1” “ดิ อเวนเจอร์ส” จะเป็นการรวบรวมเหล่าซูเปอร์ฮีโร่ของมาร์เวลครั้งยิ่ งใหญ่ เมื่อศัตรูที่ไม่คาดคิดได้คุกคามความมั่นคงและความปล อดภัยของโลกใบนี้ “นิค ฟิวรี่” ผู้ อำนวยการหน่วยรักษาความสงบและสันติระหว่างประเทศหรือ ที่รู้จักกันในชื่อ หน่วย “ชีลด์” จึงต้องรวมพลเหล่าซูเปอร์ฮีโร่เพื่อที่จะมาปกป้องโลก ให้พ้นจากหายนะที่กำลัง จะเกิดขึ้น

จากหนังสือการ์ตูนเรื่องยาวยอดฮิตของมาร์เวล คอมมิคส์ ตีพิมพ์ครั้งแรกในปี1963, “ดิ อเวนเจอร์ส” คือการรวมเหล่าตัวละครซูเปอร์ฮีโร่มาไว้ในหนังเรื่อง เดียวกันเป็นครั้งแรก นอกจากนี้ยังมีนักแสดงอีกหลายคนที่เข้าร่วมโปรเจคนี้ อย่าง “โคบี้ สมัลเดอร์ส” เป็นเจ้าหน้าที่ “มาเรีย ฮิลล์” จากหน่วย “ชีลด์” เช่นเดียวกับ “ทอม ฮิดเดิลสโตน” และ “สเตลแลน แสคการ์ด” ที่จะกลับมารับบทเดิมของพวกเขาจากเรื่อง “ธอร์” ที่กำลังเข้าฉายอยู่ในโรงภาพยนตร์ตอนนี้ในบท “โลกิ” และ “ศจ. เอริค เซลวิคจ์”

“ดิ อเวนเจอร์ส” อำนวยการสร้างโดย เควิน ฟีจ ประธานของมาร์เวล สตูดิโอส์ ที่ลงมาควบคุมการผลิตด้วยตัวเอง อำนวยการสร้างบริหารโดย อลัน ไฟน์, แสตน ลี, หลุยส์ ด’เอสโพสิโต, แพทตี้ วิชเชอร์, และ จอน ฟาฟว์โรว์ ร่วมอำนวยการสร้างโดย เจเรมี แลทแชม และวิคตอเรีย อลอนโซ จาก มาร์เวล สตูดิโอส์!!!



Format : Matroska
Format version : Version 4 / Version 2
File size : 53.7 GiB
Duration : 2 h 22 min
Overall bit rate mode : Variable
Overall bit rate : 53.8 Mb/s
Movie name : The.A[email protected]Prawit9730

Video
ID : 1
Format : HEVC
Format/Info : High Efficiency Video Coding
Commercial name : HDR10
Format profile : Main [email protected]@High
Codec ID : V_MPEGH/ISO/HEVC
Duration : 2 h 22 min
Bit rate : 43.0 Mb/s
Width : 3 840 pixels
Height : 2 160 pixels
Display aspect ratio : 16:9
Frame rate mode : Constant
Frame rate : 23.976 (24000/1001) FPS
Color space : YUV
Chroma subsampling : 4:2:0 (Type 2)
Bit depth : 10 bits
Bits/(Pixel*Frame) : 0.216
Stream size : 42.9 GiB (80%)
Title : The.A[email protected]Prawit9730
Default : Yes
Forced : No
Color range : Limited
Color primaries : BT.2020
Transfer characteristics : PQ
Matrix coefficients : BT.2020 non-constant
Mastering display color primaries : Display P3
Mastering display luminance : min: 0.0001 cd/m2, max: 1000 cd/m2

Audio #1
ID : 2
Format : TrueHD
Format profile : TrueHD+Atmos / TrueHD
Codec ID : A_TRUEHD
Duration : 2 h 22 min
Bit rate mode : Variable
Bit rate : 4 971 kb/s
Maximum bit rate : 7 056 kb/s
Channel(s) : Object Based / 8 channels
Channel positions : Object Based / Front: L C R, Side: L R, Back: L R, LFE
Sampling rate : / 48.0 kHz
Frame rate : 1 200.000 FPS (40 SPF)
Compression mode : Lossless
Delay relative to video : 32 ms
Stream size : 4.96 GiB (9%)
Title : English TrueHD 7.1+Atmos
Language : English
Default : Yes
Forced : No

Audio #2
ID : 3
Format : DTS
Format/Info : Digital Theater Systems
Format profile : MA / Core
Codec ID : A_DTS
Duration : 2 h 22 min
Bit rate mode : Variable / Constant
Bit rate : 4 168 kb/s / 1 509 kb/s
Channel(s) : 8 channels / 6 channels
Channel positions : Front: L C R, Side: L R, Back: L R, LFE / Front: L C R, Side: L R, LFE
Sampling rate : 48.0 kHz
Frame rate : 93.750 FPS (512 SPF)
Bit depth : 24 bits
Compression mode : Lossless / Lossy
Delay relative to video : -1 ms
Stream size : 4.16 GiB (8%)
Title : English DTS-HD.MA 7.1
Language : English
Default : No
Forced : No

Audio #3
ID : 4
Format : AC-3
Format/Info : Audio Coding 3
Codec ID : A_AC3
Duration : 2 h 22 min
Bit rate mode : Constant
Bit rate : 640 kb/s
Channel(s) : 6 channels
Channel positions : Front: L C R, Side: L R, LFE
Sampling rate : 48.0 kHz
Frame rate : 31.250 FPS (1536 SPF)
Bit depth : 16 bits
Compression mode : Lossy
Delay relative to video : 31 ms
Stream size : 654 MiB (1%)
Title : English 5.1
Language : English
Service kind : Complete Main
Default : No
Forced : No

Audio #4
ID : 5
Format : AC-3
Format/Info : Audio Coding 3
Codec ID : A_AC3
Duration : 2 h 22 min
Bit rate mode : Constant
Bit rate : 320 kb/s
Channel(s) : 2 channels
Channel positions : Front: L R
Sampling rate : 48.0 kHz
Frame rate : 31.250 FPS (1536 SPF)
Bit depth : 16 bits
Compression mode : Lossy
Stream size : 327 MiB (1%)
Title : English 2.0
Language : English
Service kind : Complete Main
Default : No
Forced : No

Audio #5
ID : 8
Format : AC-3
Format/Info : Audio Coding 3
Codec ID : A_AC3
Duration : 2 h 22 min
Bit rate mode : Constant
Bit rate : 640 kb/s
Channel(s) : 6 channels
Channel positions : Front: L C R, Side: L R, LFE
Sampling rate : 48.0 kHz
Frame rate : 31.250 FPS (1536 SPF)
Bit depth : 16 bits
Compression mode : Lossy
Delay relative to video : -1 ms
Stream size : 654 MiB (1%)
Title : THAI 5.1 FROM BLU-RAY MASTER
Language : Thai
Service kind : Complete Main
Default : No
Forced : No

Text #1
ID : 6
Format : PGS
Muxing mode : zlib
Codec ID : S_HDMV/PGS
Codec ID/Info : Picture based subtitle format used on BDs/HD-DVDs
Duration : 2 h 15 min
Bit rate : 12.5 kb/s
Count of elements : 4086
Stream size : 12.1 MiB (0%)
Title : English-PGS
Language : English
Default : Yes
Forced : No

Text #2
ID : 7
Format : PGS
Muxing mode : zlib
Codec ID : S_HDMV/PGS
Codec ID/Info : Picture based subtitle format used on BDs/HD-DVDs
Duration : 3 min 46 s
Bit rate : 5 483 b/s
Count of elements : 62
Stream size : 151 KiB (0%)
Title : English-FORCED-PGS
Language : English
Default : No
Forced : No

Text #3
ID : 9
Format : VobSub
Muxing mode : zlib
Codec ID : S_VOBSUB
Codec ID/Info : Picture based subtitle format used on DVDs
Duration : 2 h 15 min
Bit rate : 1 466 b/s
Count of elements : 1646
Stream size : 1.42 MiB (0%)
Title : THAI 480P FROM BLU-RAY
Language : Thai
Default : No
Forced : No

Text #4
ID : 10
Format : VobSub
Muxing mode : zlib
Codec ID : S_VOBSUB
Codec ID/Info : Picture based subtitle format used on DVDs
Duration : 2 h 15 min
Bit rate : 4 505 b/s
Count of elements : 1646
Stream size : 4.36 MiB (0%)
Title : THAI 1080P FROM BLU-RAY
Language : Thai
Default : No
Forced : No

Text #5
ID : 11
Format : PGS
Muxing mode : zlib
Codec ID : S_HDMV/PGS
Codec ID/Info : Picture based subtitle format used on BDs/HD-DVDs
Duration : 2 h 15 min
Bit rate : 17.7 kb/s
Count of elements : 3292
Stream size : 17.2 MiB (0%)
Title : THAI PGS FROM BLU-RAY
Language : Thai
Default : No
Forced : No

























Download: cornfile
http://cornfile.com/iyargpb2tlpu
Download: mekafile
http://www.mekafile.com/dl.php?f=oobe1abIEe8f